Ask Your Question

Revision history [back]

click to hide/show revision 1
initial version

You are going to have to manually change the XML and copy the required video files to a newly created Media/ directory in the ODP. This is what the XML for a linked video[1] looks like:

<draw:plugin xlink:href="../../path/to/video.ogg" xlink:type="simple" xlink:show="embed" xlink:actuate="onLoad" draw:mime-type="application/vnd.sun.star.media">

... and here is the same video embedded in the ODP:

<draw:plugin xlink:href="Media/video.ogg" xlink:type="simple" xlink:show="embed" xlink:actuate="onLoad" draw:mime-type="application/vnd.sun.star.media">

[1] Video format is an OGG container with these stream encodings:

Duration: 00:00:31.12, start: 0.000000, bitrate: 578 kb/s
    Stream #0.0: Video: theora, yuv420p, 384x288 [PAR 1:1 DAR 4:3], 25 fps, 25 tbr, 25 tbn, 25 tbc
    Stream #0.1: Audio: vorbis, 32000 Hz, stereo, s16, 64 kb/s