Ask Your Question

Revision history [back]

I have an ODP that in version 4.2 ran an mp4 in 4.3 no longer runs? Discontinued some codec?

General

Format : MPEG-4 Format profile : Base Media / Version 2 Codec ID : mp42 File size : 8.32 MiB Duration : 3mn 35s Overall bit rate mode : Variable Overall bit rate : 324 Kbps Encoded date : UTC 2014-02-01 13:04:13 Tagged date : UTC 2014-02-01 13:04:13 gsst : 0 gstd : 215318 gssd : BADC21DA4MH1397929788630621 gshh : r13---sn-hp576ne7.googlevideo.com

Video ID : 1 Format : AVC Format/Info : Advanced Video Codec Format profile : Baseline@L1.3 Format settings, CABAC : No Format settings, ReFrames : 1 frame Codec ID : avc1 Codec ID/Info : Advanced Video Coding Duration : 3mn 35s Bit rate : 250 Kbps Maximum bit rate : 945 Kbps Width : 320 pixels Height : 240 pixels Display aspect ratio : 4:3 Frame rate mode : Constant Frame rate : 25.000 fps Color space : YUV Chroma subsampling : 4:2:0 Bit depth : 8 bits Scan type : Progressive Bits/(Pixel*Frame) : 0.130 Stream size : 6.41 MiB (77%) Tagged date : UTC 2014-02-01 13:04:14

Audio ID : 2 Format : AAC Format/Info : Advanced Audio Codec Format profile : LC Codec ID : 40 Duration : 3mn 35s Bit rate mode : Variable Bit rate : 72.0 Kbps Maximum bit rate : 76.9 Kbps Channel(s) : 1 channel Channel positions : Front: C Sampling rate : 44.1 KHz Compression mode : Lossy Stream size : 1.85 MiB (22%) Title : IsoMedia File Produced by Google, 5-11-2011 Encoded date : UTC 2014-02-01 13:04:14 Tagged date : UTC 2014-02-01 13:04:14

click to hide/show revision 2
No.2 Revision

I have an ODP that in version 4.2 ran an mp4 in 4.3 no longer runs? Discontinued some codec?

General

Format                         : MPEG-4
Format profile                 : Base Media / Version 2
Codec ID                       : mp42
File size                      : 8.32 MiB
Duration                       : 3mn 35s
Overall bit rate mode          : Variable
Overall bit rate               : 324 Kbps
Encoded date                   : UTC 2014-02-01 13:04:13
Tagged date                    : UTC 2014-02-01 13:04:13
gsst                           : 0
gstd                           : 215318
gssd                           : BADC21DA4MH1397929788630621
gshh                           : r13---sn-hp576ne7.googlevideo.comr13---sn-hp576ne7.googlevideo.com

Video

Video

ID                             : 1
Format                         : AVC
Format/Info                    : Advanced Video Codec
Format profile                 : Baseline@L1.3
Format settings, CABAC         : No
Format settings, ReFrames      : 1 frame
Codec ID                       : avc1
Codec ID/Info                  : Advanced Video Coding
Duration                       : 3mn 35s
Bit rate                       : 250 Kbps
Maximum bit rate               : 945 Kbps
Width                          : 320 pixels
Height                         : 240 pixels
Display aspect ratio           : 4:3
Frame rate mode                : Constant
Frame rate                     : 25.000 fps
Color space                    : YUV
Chroma subsampling             : 4:2:0
Bit depth                      : 8 bits
Scan type                      : Progressive
Bits/(Pixel*Frame)             : 0.130
Stream size                    : 6.41 MiB (77%)
Tagged date                    : UTC 2014-02-01 13:04:1413:04:14

Audio

Audio

ID                             : 2
Format                         : AAC
Format/Info                    : Advanced Audio Codec
Format profile                 : LC
Codec ID                       : 40
Duration                       : 3mn 35s
Bit rate mode                  : Variable
Bit rate                       : 72.0 Kbps
Maximum bit rate               : 76.9 Kbps
Channel(s)                     : 1 channel
Channel positions              : Front: C
Sampling rate                  : 44.1 KHz
Compression mode               : Lossy
Stream size                    : 1.85 MiB (22%)
Title                          : IsoMedia File Produced by Google, 5-11-2011
Encoded date                   : UTC 2014-02-01 13:04:14
Tagged date                    : UTC 2014-02-01 13:04:14

13:04:14